<?xml version="1.0" standalone="no"?>
<!DOCTYPE svg PUBLIC "-//W3C//DTD SVG 1.1//EN" "../../../../www.w3.org/Graphics/SVG/1.1/DTD/svg11.dtd" >
<svg xmlns="http://www.w3.org/2000/svg">
<metadata>
This is a custom SVG font generated by IcoMoon.
0
</metadata>
<defs>
<font id="Elusive-Icons" horiz-adv-x="512" >
<font-face units-per-em="512" ascent="480" descent="-32" />
<missing-glyph horiz-adv-x="512" />
<glyph unicode="&#xe000;" d="M0.00,480.00,M-374.218,542.236,m 874.69-506.958 -92.512,92.512 c 25.361,36.313 40.348,80.407 40.348,03792F1A65"  />
<glyph unicode="&#xe001;" d="M0.00,480.00,M-374.218,542.236,m 630.362-190.324 -64.044,0.00 0.00-64.044 -64.044,0.00 0.00-64.044 60D73E00A02"  />
<glyph unicode="&#xe002;" d="M 512.00,405.765 L 512.00,42.234  c 0.00-3.639 -1.273-6.641 -3.821-9.006 -2.547-2.365 -5.64-3.548 -9.279-3.548 L 13.10,38.686  c -3.639,0.00 -6.732,1.183 -9.279,3.548 -2.547,2.365 -3.821,5.367 -3.821,9.006 l 0.00,363.531  c 0.00,3.639 1.274,6.641 3.821,9.006 2.547,2.365 5.64,3.548 9.279,3.548 l 485.80,0.00  c 3.647,0.00 6.74-1.183 9.279-3.548 2.547-2.365 3.821-5.367 3.821-9.006 z M 182.311,110.464 361.348,222.908 182.311,335.351 L 182.311,110.464  z"  />
<glyph unicode="&#xe003;" d="M -374.218,542.236 Z M 256.00,480.00 C 397.385,480.00 512.00,365.385 512.00,224.00 C 512.00,82.615 303D20CFA1A"  />
<glyph unicode="&#xe004;" d="M0.00,480.00,M-374.218,542.236,m 744.513-62.699 c -17.546-0.117 -34.916-3.929 -52.112-11.405 -54.7720D390E2A2E"  />
<glyph unicode="&#xe005;" d="M0.00,480.00,M-374.218,542.236,M 255.707-32.00 C 112.743-29.252 0.999,87.941 0.00,224.292 2.78,367.10DB867FA2F"  />
<glyph unicode="&#xe006;" d="M -14.626,52.149 Z M 354.757,129.195 C 343.069,131.785 332.615,125.343 328.529,112.802 C 327.436,1070E5ED86A50"  />
<glyph unicode="&#xe007;" d="M-374.218,542.236,m 630.218-62.236 c -141.385,0.00 -256.00-114.615 -256.00-256.00 0.00-141.385 114.602C2CADA97"  />
<glyph unicode="&#xe008;" d="M0.00,480.00,M -0.513,70.092,M 298.068,86.509 L 212.906,86.509  L 212.906,171.671  L 298.068,171.671  L 298.068,86.509  z m 107.735,0.00 L 320.641,86.509  L 320.641,171.671  L 405.804,171.671  L 405.804,86.509  z M 190.333,86.509 L 105.17,86.509  L 105.17,171.671  L 190.333,171.671  L 190.333,86.509  z M 405.804,355.848 L 405.804,198.862  L 105.17,198.862  l 0.00,156.986  l 300.633,0.00  z m 43.094,45.146 L 63.102,400.994  L 63.102,47.006  L 448.898,47.006  L 448.898,400.994  z M 31.295-15.583 c -8.55,0.00 -15.904,2.992 -22.06,8.978 -6.156,5.985 -9.234,13.424 -9.234,22.317 l 0.00,416.577  c 0.00,8.892 3.078,16.331 9.234,22.317 6.156,5.985 13.51,8.978 22.06,8.978 l 449.411,0.00  c 8.551,0.00 15.904-2.992 22.06-8.978 6.156-5.985 9.234-13.424 9.234-22.317 l 0.00-416.577  c 0.00-8.892 -3.078-16.331 -9.234-22.317 -6.156-5.985 -13.51-8.978 -22.06-8.978 L 31.295-15.583  z"  />
<glyph unicode="&#xe009;" d="M 506.048,64.731 313.287,441.014 c -28.332,45.798 -92.152,42.21 -114.927,0.00 L 5.599,64.731 c -20.10861D3DA88"  />
<glyph unicode="&#xe00a;" d="M0.00,480.00,M -36.864,50.505,m 495.031,160.914 c 1.237,4.967 -0.037,10.075 -4.681,11.703 l -19.31,80EB7740A2F"  />
<glyph unicode="&#xe00b;" d="M-374.218,542.236,m 374.218-228.229 l 104.028,0.00  L 260.523,441.554 L 260.523,2.827  L 104.028,13008F6050A05"  />
<glyph unicode="&#xe00c;" d="M 277.115,176.488 Z M 386.866,223.999 L 421.866,258.999 Q 422.974,260.108 422.974,261.612 Q 422.974,03417AFABA"  />
<glyph unicode="&#xe00d;" d="M 0.00,316.573 L 104.886,316.573  L 262.671,445.173 L 262.671,2.827  L 104.886,131.426 L 0.00,131.4209C3974A57"  />
<glyph unicode="&#xe00e;" d="M -14.613,61.632,m 421.074,282.52 c -14.439,16.124 -37.937,16.434 -57.37,13.531 -14.826-3.726 -28.840C57827A3F"  />
<glyph unicode="&#xe00f;" d="M0.00,480.00,M-374.218,542.236,m 825.594-83.498 c 5.746,4.98 12.067,7.47 18.963,7.47 7.283,0.00 13.40423550AB2"  />
<glyph unicode="&#xe010;" d="M 256.00,479.437 C 131.652,478.64 4.238,391.897 0.00,253.937 C 0.62,186.862 36.784,121.644 94.938,78090DE4AA46 "  />
<glyph unicode="&#xe011;" d="M 256.00,480.00 C 114.615,480.00 0.00,365.385 0.00,224.00 C 0.00,82.615 114.615-32.00 256.00-32.00 C05789ECADD "  />
<glyph unicode="&#xe012;" d="M 31.656,417.75 C 23.069,417.75 15.668,414.707 9.406,408.625 C 3.145,402.543 0.00,395.039 0.00,386.005600F0AB3 "  />
<glyph unicode="&#xe013;" d="M -374.218,542.236 Z M 400.885,102.849 C 468.235,78.311 512.00,53.283 512.00,36.234 C 512.00,19.186 0568480AA5"  />
<glyph unicode="&#xe014;" d="M-374.218,542.236,m 630.218-574.236 c -141.384,0.00 -256.00,114.616 -256.00,256.00 0.00,141.384 114.041FAD1A48"  />
<glyph unicode="&#xe015;" d="M -374.218,542.236 Z M 256.00,480.00 C 397.385,480.00 512.00,365.385 512.00,224.00 C 512.00,82.615 308DE2D6A81"  />
<glyph unicode="&#xe016;" d="M -374.218,542.236 Z M 465.504,253.538 C 376.706,253.538 287.909,253.538 199.111,253.538 L 199.111,3072A3FBAD0"  />
<glyph unicode="&#xe017;" d="M0.00,480.00,M-374.218,542.236,m 630.218-62.236 c -141.385,0.00 -256.00-114.615 -256.00-256.00 0.00-06B8ABEADA"  />
<glyph unicode="&#xe018;" d="M 511.999,387.415 C 508.575,380.185 502.201,371.052 492.878,360.017 483.555,348.982 472.044,339.278 0976015A5B"  />
<glyph unicode="&#xe019;" d="M0.00,480.00,M-374.218,542.236,m 884.053-74.685 0.00-487.104 c 0.00-3.608 -1.263-6.585 -3.789-8.93 -02B62EFABD"  />
<glyph unicode="&#xe01a;" d="M 256.00,480.00 C 114.615,480.00 0.00,365.385 0.00,224.00 C 0.00,82.615 114.615-32.00 256.00-32.00 C044B9EEAFB "  />
<glyph unicode="&#xe01b;" d="M0.00,480.00,M -20.458,58.125,m 471.637,385.382 c 9.197-0.449 15.923-7.837 16.035-16.035 l 0.00-46.406BC341A3C"  />
<glyph unicode="&#xe01c;" d="M -24.702,55.579,m 492.351,95.439 c 10.806-6.566 15.623-16.706 15.719-28.07 l 0.00-124.632 c -0.903-0AB2C45ADE"  />
<glyph unicode="&#xe01d;" d="M0.00,480.00,M 75.051-22.072,m 0.00,171.341 c 0.572,36.242 10.666,68.849 28.824,97.04 18.71,28.022 30A1227DAF1"  />
<glyph unicode="&#xe01e;" d="M 256.00,480.00 C 114.615,480.00 0.00,365.385 0.00,224.00 0.00,82.615 114.615-32.00 256.00-32.00 39706FAD4CA60"  />
<glyph unicode="&#xe01f;" d="M0.00,480.00,M-374.218,542.236,m 760.93-223.321 c 2.892-2.532 4.339-5.605 4.339-9.22 0.00-3.616 -1.40EB0313A59"  />
<glyph unicode="&#xe020;" d="M-374.218,542.236,m 399.156-233.906 127.336,0.00 c -6.139,41.615 -21.552,79.659 6.367,113.966 13.1180E0F2D9AE1"  />
<glyph unicode="&#xe021;" d="M-374.218,542.236,m 861.153-402.363 -127.303,0.00 c 2.578-20.902 6.254-40.977 10.821-60.469 2.481-370759351AC3"  />
<glyph unicode="&#xe022;" d="M-374.218,542.236,m 556.287-244.305 329.931,0.00 0.00-147.862 -329.931,0.00 z m -182.069,0.00 147.86060A0B2A02"  />
<glyph unicode="&#xe023;" d="M-374.218,542.236,m 666.218-62.236 220.00,0.00 0.00-220.00 -220.00,0.00 z m -292.00,0.00 220.00,0.000C2947FA3D"  />
<glyph unicode="&#xe024;" d="M-374.218,542.236,m 738.356-244.305 147.862,0.00 0.00-147.862 -147.862,0.00 z m -182.069,0.00 147.860FA5562AF4"  />
<glyph unicode="&#xe025;" d="M-563.645,581.754,m 742.078-498.351 0.00,28.157 50.737,0.00 0.00,336.827 -116.615,0.00 0.00-61.893 -090F055ACA"  />
<glyph unicode="&#xe026;" d="M0.00,480.00,M-717.651,475.53,m 816.204-449.832 0.00,28.158 50.738,0.00 0.00,336.834 -116.617,0.00 00A1DD53AF0"  />
<glyph unicode="&#xe027;" d="M0.00,480.00,M0.00,1020.362,m 0.00-988.605 0.00,60.284 C 0.811,104.149 10.135,113.002 21.113,113.1540E5BE25A84"  />
<glyph unicode="&#xe028;" d="M 0.00,18.023,m 0.00,262.52 0.00,124.021 c 1.484,19.473 15.387,32.815 33.054,33.054 l 124.021,0.00 c09F3BACAB1"  />
<glyph unicode="&#xe029;" d="M 13.099-22.111,m 0.00,314.146 0.00,148.41 c 1.134,22.676 19.405,39.281 39.554,39.554 l 148.41,0.00 031817BADE"  />
<glyph unicode="&#xe02a;" d="M 458.812,192.137 C 458.652,168.698 450.631,146.46 431.58,128.687 C 414.991,114.554 392.937,108.17 30C06970A1E"  />
<glyph unicode="&#xe02b;" d="M-374.218,542.236,m 630.218-574.236 c -141.376,0.00 -256.00,114.624 -256.00,256.00 0.00,141.376 114.001EDB5AC0"  />
<glyph unicode="&#xe02c;" d="M-374.218,542.236,m 474.249-162.267 311.938,0.00 0.00-311.938 -311.938,0.00 z"  />
<glyph unicode="&#xe02d;" d="M-374.218,542.236,m 702.343-162.267 73.438,0.00 0.00-311.938 -73.438,0.00 z m -218.859,0.00 0.00-311.938 208.306,155.969 -208.306,155.969 z"  />
<glyph unicode="&#xe02e;" d="M-374.218,542.236,m 702.343-162.267 73.438,0.00 0.00-311.938 -73.438,0.00 z m -218.859,0.00 0.00-311.938 208.306,155.969 -208.306,155.969 z"  />
<glyph unicode="&#xe02f;" d="M-374.218,542.236,m 630.225-71.325 c -1.36,0.00 -2.763-0.087 -4.194-0.282 -2.863-0.39 -5.814-1.207 -086CFE4A9B"  />
<glyph unicode="&#xe030;" d="M -374.218,542.236 Z M 256.00,480.00 C 397.385,480.00 512.00,365.385 512.00,224.00 C 512.00,82.615 30214A53A27"  />
<glyph unicode="&#xe031;" d="M -11.243-38.723 Z M 511.272,286.377 Q 507.603,294.763 499.74,294.763 L 326.763,294.763 L 267.532,46040CB17A2E"  />
<glyph unicode="&#xe032;" d="M -27.951,145.713 Z M 402.715,1.854 C 407.087,1.854 411.276,3.493 415.283,6.771 C 446.247,34.457 4700B1D7F3ACC"  />
<glyph unicode="&#xe033;" d="M 256.00,480.00 C 114.615,480.00 0.00,365.385 0.00,224.00 C 0.00,82.615 114.615-32.00 256.00-32.00 C09ACE3DABD "  />
<glyph unicode="&#xe034;" d="M-374.218,542.236,m 403.374-62.236 c -8.066,0.00 -14.942-2.843 -20.625-8.531 -5.683-5.689 -8.531-12.0EB7D2DA14"  />
<glyph unicode="&#xe035;" d="M0.00,480.00,M-374.218,542.236,m 413.894-62.236 c -3.624,0.00 -6.704-1.273 -9.24-3.81 -2.536-2.537 -005C68FA1C"  />
<glyph unicode="&#xe036;" d="M-374.218,542.236,m 772.861-381.969 c 0.268,39.907 -23.355,66.44 -55.599,81.344 -15.879,6.787 -32.1409ED44CA0A"  />
<glyph unicode="&#xe037;" d="M-374.218,542.236,m 783.818-574.236 0.00,512.00 102.40,0.00 0.00-512.00 -102.40,0.00 z m -136.533,380BEDFD0A98"  />
<glyph unicode="&#xe038;" d="M 256.00,480.00 C 114.615,480.00 0.00,365.385 0.00,224.00 0.00,82.615 114.615-32.00 256.00-32.00 3970C5CF8EAAA"  />
<glyph unicode="&#xe039;" d="M-374.218,542.236,m 885.961-234.412 -21.471-123.177 c -2.648-13.607 -13.489-21.881 -25.991-22.036 l 0B18190A21"  />
<glyph unicode="&#xe03a;" d="M 0.00,48.955 C 0.285,241.56 167.339,330.15 331.465,332.035 l 0.00,81.476 c -0.519,28.236 20.699,27.0A58484A73"  />
<glyph unicode="&#xe03b;" d="M0.00,480.00,M-374.218,542.236,m 822.218-478.237 c 0.00-17.696 -14.304-32.00 -32.00-32.00 l -320.00,0A11CADAC8"  />
<glyph unicode="&#xe03c;" d="M0.00,480.00,M-374.218,542.236,m 653.865-229.296 c 36.16,0.00 65.465-29.315 65.465-65.474 0.00-36.160124791A36"  />
<glyph unicode="&#xe03d;" d="M-374.218,542.236,m 668.268-62.236 c -117.084,0.00 -212.011-94.91 -212.011-211.995 0.00-41.601 11.970FD46F6A43"  />
<glyph unicode="&#xe03e;" d="M0.00,1020.362,m 0.00-821.696 0.00,51.333 C 0.587,257.662 6.177,262.247 13.00,262.333 l 54.667,0.00 06ED7CCA2B"  />
<glyph unicode="&#xe03f;" d="M-374.218,542.236,m 630.218-62.236 c -141.385,0.00 -256.00-114.615 -256.00-256.00 0.00-141.385 114.60BB262AAD1"  />
<glyph unicode="&#xe040;" d="M 31.063,435.406 C 22.242,435.406 14.851,432.355 8.906,426.219 C 2.962,420.082 0.00,412.602 0.00,4030B12FE6AB1 "  />
<glyph unicode="&#xe041;" d="M -374.218,542.236 Z M 48.729,480.00 C 91.303,480.00 132.289,474.482 171.688,463.465 C 251.023,440.30B9FDDDA07"  />
<glyph unicode="&#xe042;" d="M 0.805-20.333 165.646,468.333 c 2.601,6.793 8.855,11.579 14.708,11.667 l 54.114,0.00 -2.22-56.667 40B592A1AB3"  />
<glyph unicode="&#xe043;" d="M-374.218,542.236,m 630.218-574.236 c -141.376,0.00 -256.00,114.624 -256.00,256.00 0.00,141.376 114.0AD92E2A4C"  />
<glyph unicode="&#xe044;" d="M 128.00,384.00 L 256.00,256.00 L 160.00,256.00 L 160.00,160.00 L 224.00,160.00 L 288.00,96.00 L 96.0A8F6F5A31"  />
<glyph unicode="&#xe045;" d="M 255.031,480.00 C 259.204,480.175 263.31,478.693 266.781,476.281 L 328.188,414.562 C 337.057,404.0809793AFAB4"  />
<glyph unicode="&#xe046;" d="M-621.528-629.295,m 625.424,676.222 91.704,90.704 -55.356,55.356 c -18.332,17.568 -4.478,30.513 13.00DFC42DA74"  />
<glyph unicode="&#xe047;" d="M-717.651,475.53,m 1164.202-179.552 61.739-61.406 c 5.564-7.041 4.288-15.187 0.00-21.358 l -61.739-601C3060ACA"  />
<glyph unicode="&#xe048;" d="M 0.00-3.334 0.00,170.667 c -0.472,24.715 18.098,24.698 30.667,13.00 L 86.00,128.333 l 91.333,91.66708AD3E2AD7"  />
<glyph unicode="&#xe049;" d="M 256.00-32.00 C 113.984-30.702 0.685,86.62 0.00,224.00 1.298,366.016 118.62,479.315 256.00,480.00 3010A652A7B"  />
<glyph unicode="&#xe04a;" d="M -21.082,150.838,m 527.35,84.625 c -0.672-8.26 -7.862-12.319 -14.738-10.371 L 308.127,287.864 c -9.03E9ED0A68"  />
<glyph unicode="&#xe04b;" d="M 256.00,480.00 C 397.385,480.00 512.00,365.385 512.00,224.00 C 512.00,82.615 397.385-32.00 256.00-30A9FDC8ACC"  />
<glyph unicode="&#xe04c;" d="M 256.00,480.00 C 114.616,480.00 0.00,365.384 0.00,224.00 C 0.00,82.616 114.616-32.00 256.00-32.00 C03406B6AF3 "  />
<glyph unicode="&#xe04d;" d="M -55.451,39.384,m 563.138,48.615 c 2.875-2.872 4.313-6.256 4.313-10.154 0.00-3.897 -1.437-7.282 -4.0E21786A44"  />
<glyph unicode="&#xe04e;" d="M -374.218,542.236 Z M 444.032,228.729 L 512.00,228.692 C 511.908,120.362 449.975,28.637 349.495-12.06595D1A72"  />
<glyph unicode="&#xe04f;" d="M0.00,480.00,M-374.218,542.236,m 715.187-437.507 c 5.801-9.393 -0.381-13.312 -5.647-17.748 -22.655-10F8DD81A14"  />
<glyph unicode="&#xe050;" d="M-374.218,542.236,m 630.218-574.236 c -141.376,0.00 -256.00,114.624 -256.00,256.00 0.00,141.376 114.0E3A630A43"  />
<glyph unicode="&#xe051;" d="M0.00,480.00,M0.00,1020.362,m 0.00-939.333 0.00,42.781 C 0.308,129.995 5.373,134.295 10.834,134.367 09B9586AE1"  />
<glyph unicode="&#xe052;" d="M0.00,480.00,M-374.218,542.236,m 630.218-62.236 c -141.385,0.00 -256.00-114.615 -256.00-256.00 0.00-0A6D767A70"  />
<glyph unicode="&#xe053;" d="M -32.972,202.928 Z M 511.511,356.857 L 511.511,356.857 L 496.866,423.575 C 496.143,427.192 494.334,04CFEFBAE3"  />
<glyph unicode="&#xe054;" d="M0.00,480.00,M0.00,1020.362,m 256.00-540.362 c -141.384,0.00 -256.00-114.616 -256.00-256.00 0.00-14106B6B90A12"  />
<glyph unicode="&#xe055;" d="M-374.218,542.236,m 618.518-447.278 c -24.603,4.263 -41.019,25.882 -39.232,48.20 5.627,41.953 21.05403D79D9ADB"  />
<glyph unicode="&#xe056;" d="M 0.00-32.00 L 0.00,200.666  L 232.667,200.666  L 232.667-32.00  L 0.00-32.00  z m 0.00,279.333 L 0.09D476DA76"  />
<glyph unicode="&#xe057;" d="M-374.218,542.236,m 408.177-226.808 444.082,0.00 c 14.89,0.00 12.46,15.882 5.042,18.469 -7.419,2.586068554EA33"  />
<glyph unicode="&#xe058;" d="M 256.00,480.00 C 114.615,480.00 0.00,365.385 0.00,224.00 C 0.00,82.615 114.615-32.00 256.00-32.00 C0329638AEA "  />
<glyph unicode="&#xe059;" d="M -32.13,150.838,m 531.03,145.759 c 3.647,0.00 6.74-1.273 9.279-3.821 2.547-2.549 3.821-5.642 3.821-0CAA240AFE"  />
<glyph unicode="&#xe05a;" d="M 256.00,480.00 C 114.624,480.00 0.00,365.376 0.00,224.00 C 0.00,82.624 114.624-32.00 256.00-32.00 C0B845EEA54 "  />
<glyph unicode="&#xe05b;" d="M-374.218,542.236,m 630.218-574.236 c -141.376,0.00 -256.00,114.624 -256.00,256.00 0.00,141.376 114.01774F4ABB"  />
<glyph unicode="&#xe05c;" d="M-374.218,542.236,m 526.065-162.267 0.00-311.938 208.306,155.969 z"  />
<glyph unicode="&#xe05d;" d="M0.00,1020.362,m 136.96-1037.002 51.20,0.00 114.893,204.826 132.147,0.00 c 0.00,0.00 76.80,0.00 76.80BE6A8DA03"  />
<glyph unicode="&#xe05e;" d="M-374.218,542.236,m 630.218-62.236 c 152.087-2.844 255.007-119.478 256.00-256.00 -2.72-145.46 -119.4086FC92AD1"  />
<glyph unicode="&#xe05f;" d="M-374.218,542.236,m 397.911-104.596 c -13.126,0.00 -23.693-10.567 -23.693-23.693 l 0.00-379.896 c 0.00-13.126 10.567-23.693 23.693-23.693 l 464.614,0.00 c 13.126,0.00 23.693,10.567 23.693,23.693 l 0.00,379.896 c 0.00,13.126 -10.567,23.693 -23.693,23.693 l -464.614,0.00 z m 15.601-39.902 433.42,0.00 0.00-347.469 -433.42,0.00 0.00,347.469 z m 45.984-93.519 q 0.00,18.336 12.502,30.838 12.502,12.502 30.838,12.502 17.503,0.00 30.005-12.502 12.502-12.502 12.502-30.838 0.00-17.503 -12.502-30.005 -12.502-12.502 -30.005-12.502 -18.336,0.00 -30.838,12.502 -12.502,12.502 -12.502,30.005 z m 0.00-212.812 L 57.175,120.579  L 162.235,220.595 214.465,177.255 312.814,326.445 426.721,208.649 L 426.721,91.408  L 85.278,91.408  z"  />
<glyph unicode="&#xe060;" d="M0.00,480.00,M-374.218,542.236,m 762.838-102.727 c 75.976-47.385 122.947-129.32 123.38-215.779 0.00-0D2D88DA4A"  />
<glyph unicode="&#xe061;" d="M 256.00,480.00 C 114.615,480.00 0.00,365.385 0.00,224.00 C 0.00,82.615 114.615-32.00 256.00-32.00 C0603F82A66 "  />
<glyph unicode="&#xe062;" d="M0.00,480.00,M -31.641,51.415,m 480.935,353.798 -386.589,0.00 0.00-266.93 386.589,0.00 z M 31.065-200D12C99ABC"  />
<glyph unicode="&#xe063;" d="M-374.218,542.236,m 630.218-62.236 c -141.385,0.00 -256.00-114.615 -256.00-256.00 0.00-141.385 114.600098ACA55"  />
<glyph unicode="&#xe064;" d="M-374.218,542.236,m 879.521-484.65 -72.186-71.607 c -10.655-10.928 -24.78-14.63 -38.535-14.647 C 3330B0B1DCAAF"  />
<glyph unicode="&#xe065;" d="M-374.218,542.236,m 681.089-177.974 c 7.854,0.00 15.083-1.517 21.687-4.552 19.604-9.867 31.179-28.6205AA2DDA7D"  />
<glyph unicode="&#xe066;" d="M-374.218,542.236,m 630.218-62.236 c -141.385,0.00 -256.00-114.615 -256.00-256.00 0.00-141.385 114.6018015FA4E"  />
<glyph unicode="&#xe067;" d="M 498.844,398.612 C 517.426,380.03 516.164,348.722 496.067,328.575 C 475.919,308.427 444.562,307.2150F55EEAAC3"  />
<glyph unicode="&#xe068;" d="M-374.218,542.236,m 630.218-574.236 c -141.376,0.00 -256.00,114.624 -256.00,256.00 0.00,141.376 114.067C878AF5"  />
<glyph unicode="&#xe069;" d="M-374.218,542.236,m 586.298-162.267 -91.233,0.00 0.00-311.938 91.233,0.00 z m 179.073,0.00 -91.233,0.00 0.00-311.938 91.233,0.00 z"  />
<glyph unicode="&#xe06a;" d="M 493.568,283.391 C 493.181,335.047 471.619,388.676 428.032,425.727 C 381.549,463.024 319.144,478.920770689A2D"  />
<glyph unicode="&#xe06b;" d="M-374.218,542.236,m 630.218-62.236 c -141.385,0.00 -256.00-114.615 -256.00-256.00 0.00-141.385 114.6033688FA0B"  />
<glyph unicode="&#xe06c;" d="M -374.218,542.236 Z M 202.049,5.885 C 185.231-10.639 155.169-30.776 124.595-32.00 C 99.167-31.801 700502CDA14"  />
<glyph unicode="&#xe06d;" d="M0.00,480.00,M-374.218,542.236,m 630.218-62.236 c -141.385,0.00 -256.00-114.615 -256.00-256.00 0.00-058C762A32"  />
<glyph unicode="&#xe06e;" d="M 256.00,480.00 C 114.616,480.00 0.00,365.384 0.00,224.00 C 0.00,82.616 114.616-32.00 256.00-32.00 C0B131F5AF0 "  />
<glyph unicode="&#xe06f;" d="M -8.07,65.647 Z M 508.406,366.132 L 442.394,432.144 C 436.456,436.685 431.303,437.062 424.439,432.10C0F7F7A36"  />
<glyph unicode="&#xe070;" d="M-374.218,542.236,m 886.218-318.236 c 0.00-141.385 -114.615-256.00 -256.00-256.00 -141.385,0.00 -2560AD01B6A46"  />
<glyph unicode="&#xe071;" d="M -36.884,56.255 Z M 0.606,211.044 C 56.396,138.798 151.009,97.728 244.88,96.711 C 258.417,127.888 208311C3A40"  />
<glyph unicode="&#xe072;" d="M 155.647,445.561 C 155.647,448.385 157.425,448.604 158.784,448.675 L 511.639,472.996 C 511.961,473.0E6B0A3AB4"  />
<glyph unicode="&#xe073;" d="M-374.218,542.236,m 374.218-318.236 q 0.00,8.01 5.771,13.777 l 82.074,82.023 q 8.656,8.651 14.587,6.091DB35AE0"  />
<glyph unicode="&#xe074;" d="M 256.00,480.00 C 114.615,480.00 0.00,365.385 0.00,224.00 C 0.00,82.615 114.615-32.00 256.00-32.00 C071BD17A5B "  />
<glyph unicode="&#xe075;" d="M -32.165,150.501 Z M 499.432,296.674 L 13.114,296.674 C 6.396,296.584 0.351,291.12 0.00,283.56 L 0.018F189AE1"  />
<glyph unicode="&#xe076;" d="M 256.00,480.00 C 114.615,480.00 0.00,365.385 0.00,224.00 C 0.00,82.615 114.615-32.00 256.00-32.00 C0D95DD7AB8 "  />
<glyph unicode="&#xe077;" d="M -374.218,542.236 Z M 333.135,452.052 L 333.135,452.052 L 333.135,413.484 C 333.135,412.366 332.203047A4E0A5A"  />
<glyph unicode="&#xe078;" d="M 256.00,480.00 C 114.615,480.00 0.00,365.385 0.00,224.00 C 0.00,82.615 114.615-32.00 256.00-32.00 C051B645ACE "  />
<glyph unicode="&#xe079;" d="M0.00,480.00,M-374.218,542.236,m 630.193-62.236 c -107.373,0.00 -194.394-87.021 -194.394-194.394 0.3095BBA9A96"  />
<glyph unicode="&#xe07a;" d="M0.00,480.00,M-374.218,542.236,m 702.684-62.236 c -23.123-0.29 -33.721-14.871 -34.628-35.311 0.122-204167FDA74"  />
<glyph unicode="&#xe07b;" d="M0.00,480.00,M-374.218,542.236,m 630.218-62.236 c -141.385,0.00 -256.00-114.615 -256.00-256.00 0.00-0701B6CAE4"  />
<glyph unicode="&#xe07c;" d="M 256.00,480.00 C 387.519,480.00 494.531,379.381 494.531,255.687 C 494.531,249.20 494.238,242.641 4900CD13DA32"  />
<glyph unicode="&#xe07d;" d="M 256.00,480.00 C 114.615,480.00 0.00,365.385 0.00,224.00 C 0.00,82.615 114.615-32.00 256.00-32.00 C0F29618AB8 "  />
<glyph unicode="&#xe07e;" d="M -50.112,135.151,m 237.243,127.516 131.528,0.00 0.00,57.579 0.00,0.564 c -0.59,18.209 -7.183,34.64705631CDAC7"  />
<glyph unicode="&#xe07f;" d="M0.00,480.00,M-374.218,542.236,m 778.466-574.236 -296.497,0.00 c -18.202,0.00 -32.944,14.71 -32.944,064F325AC0"  />
<glyph unicode="&#xe080;" d="M-374.218,542.236,m 374.218-482.034 92.202,0.00 0.00-92.202 -92.202,0.00 z m 0.00,0.00 92.202,0.00 00B43F7BADB"  />
<glyph unicode="&#xe081;" d="M0.00,480.00,M-374.218,542.236,m 802.328-364.782 c -0.642,28.087 -6.389,55.735 -24.355,75.772 -17.28083E76CADE"  />
<glyph unicode="&#xe082;" d="M0.00,1020.362,m 56.172-898.557 c -3.183,7.673 -7.145,15.299 -8.305,23.575 C 32.598,252.096 119.666,00F726CA41"  />
<glyph unicode="&#xe083;" d="M 256.00,480.00 C 114.615,480.00 0.00,365.385 0.00,224.00 C 0.00,82.615 114.615-32.00 256.00-32.00 C0C41533A79 "  />
<glyph unicode="&#xe084;" d="M-374.218,542.236,m 676.787-449.262 c 0.00,1.754 -0.175,3.245 -0.526,4.473 -0.351,1.228 -0.877,1.84206C1493A5A"  />
<glyph unicode="&#xe085;" d="M-374.218,542.236,m 514.276-175.308 c -77.348,0.00 -140.058-62.694 -140.058-140.042 0.00-77.348 62.70950988A1F"  />
<glyph unicode="&#xe086;" d="M-374.218,542.236,m 620.959-537.885 65.157,0.00 -7.202-36.351 -199.93,0.00 7.202,36.351 65.157,0.00 87.791,438.955 -65.157,0.00 7.545,36.694 199.93,0.00 -7.545-36.694 -65.157,0.00 -87.791-438.955"  />
<glyph unicode="&#xe087;" d="M 256.00,480.00 C 114.615,480.00 0.00,365.385 0.00,224.00 C 0.00,82.615 114.615-32.00 256.00-32.00 C057F43AAE9 "  />
<glyph unicode="&#xe088;" d="M 12.719,480.00 C 5.68,480.00 0.00,474.32 0.00,467.281 L 0.00,333.969 L 151.563,333.969 C 174.879,3600CB5A1ACC "  />
<glyph unicode="&#xe089;" d="M 256.00,480.00 C 114.615,480.00 0.00,365.385 0.00,224.00 C 0.00,82.615 114.615-32.00 256.00-32.00 C0BD1BE6A8C "  />
<glyph unicode="&#xe08a;" d="M0.00,480.00,M-374.218,542.236,m 736.757-325.182 q 0.00,4.445 3.889,9.723 l 60.284,59.729 q 6.39,6.3044BA07A75"  />
<glyph unicode="&#xe08b;" d="M0.00,480.00,M-374.218,542.236,m 630.357-158.497 0.00,32.504 c 0.82,12.319 10.325,20.964 21.391,21.10B9BE16AA6"  />
<glyph unicode="&#xe08c;" d="M-374.218,542.236,m 414.218-334.236 118.544,160.00 194.912,0.00 118.544-160.00 -88.00,0.00 -64.00-6403DEB8EA5A"  />
<glyph unicode="&#xe08d;" d="M 256.00,480.00 C 114.615,480.00 0.00,365.385 0.00,224.00 C 0.00,82.615 114.615-32.00 256.00-32.00 C09BF819ACE "  />
<glyph unicode="&#xe08e;" d="M-374.218,542.236,m 534.474-198.428 c -3.873,6.212 1.144,13.708 7.168,13.824 l 41.472,0.00 0.00,111.0457539A11"  />
<glyph unicode="&#xe08f;" d="M-374.218,542.236,m 630.218-62.236 c -141.385,0.00 -256.00-114.615 -256.00-256.00 0.00-141.385 114.6025CF15AA0"  />
<glyph unicode="&#xe090;" d="M-374.218,542.236,m 684.085-538.49 c 2.20,0.00 4.125-0.825 5.774-2.475 1.65-1.65 2.475-3.575 2.475-50282F5AA70"  />
<glyph unicode="&#xe091;" d="M 256.00,480.00 C 114.615,480.00 0.00,365.385 0.00,224.00 C 0.00,82.615 114.615-32.00 256.00-32.00 C08DEEE5ACF "  />
<glyph unicode="&#xe092;" d="M -34.014,148.662,m 516.774,157.308 c 4.34-2.893 6.51-7.233 6.51-13.02 l 0.00-308.133 c -0.731-10.030D91A9CAB0"  />
<glyph unicode="&#xe093;" d="M-374.218,542.236,m 729.412-81.935 c -20.615-0.212 -41.759-4.238 -62.446-12.495 l -0.939-0.398 -0.930356F17AF9"  />
<glyph unicode="&#xe094;" d="M 253.689,477.432 C 113.722,477.432 0.257,363.967 0.257,224.00 C 0.257,84.033 113.722-29.432 253.68906BD434A61 " horiz-adv-x="506.864593781344"  />
<glyph unicode="&#xe095;" d="M-374.218,542.236,m 876.246-169.051 c 23.254-71.851 3.793-144.965 -37.219-200.052 -27.071-37.356 -5903E3F8AAC2"  />
<glyph unicode="&#xe096;" d="M0.00,480.00,M-374.218,542.236,m 869.077-69.953 c 11.183-12.965 10.816-29.594 0.00-40.705 l -70.102-0BC17BCA6B"  />
<glyph unicode="&#xe097;" d="M-374.218,542.236,m 822.218-462.236 c 0.00,42.667 0.00,85.333 0.00,128.00 0.00,106.032 -85.968,192.004EBECBAE9"  />
<glyph unicode="&#xe098;" d="M0.00,1020.362,m 140.289-583.034 c -15.90,0.00 -34.694-11.626 -41.777-25.848 L 9.021,198.40 c -7.11104FFA94AEC"  />
<glyph unicode="&#xe099;" d="M0.00,1020.362,m 97.221-1052.362 177.284,0.00 c 18.762,0.935 32.309,16.123 32.534,32.81 l 0.00,79.4003B422FA13"  />
<glyph unicode="&#xe09a;" d="M0.00,1020.362,m 0.00-955.141 0.00,177.284 C 0.935,261.267 16.123,274.814 32.81,275.039 l 79.405,0.00324177AB6"  />
<glyph unicode="&#xe09b;" d="M 512.00,65.221 512.00,242.505 c -0.935,18.762 -16.123,32.309 -32.81,32.534 l -79.405,0.00 c -22.697020BD5DACF"  />
<glyph unicode="&#xe09c;" d="M0.00,1020.362,m 97.221-540.362 177.284,0.00 c 18.762-0.935 32.309-16.123 32.534-32.81 l 0.00-79.4060E823A5AF4"  />
<glyph unicode="&#xe09d;" d="M0.00,480.00,M -18.976,75.649,M 266.228,315.419 208.202,406.289 c -3.397,6.515 -1.86,14.383 3.832,180C5FFDAA72"  />
<glyph unicode="&#xe09e;" d="M-374.218,542.236,m 630.218-62.236 c -141.385,0.00 -256.00-114.615 -256.00-256.00 0.00-141.385 114.60F1FD31AB8"  />
<glyph unicode="&#xe09f;" d="M-374.218,542.236,m 628.872-142.658 c -44.093,0.00 -79.838-41.732 -79.838-93.212 0.00-35.703 17.193-0C6FD16A13"  />
<glyph unicode="&#xe0a0;" d="M0.00,480.00,M-374.218,542.236,m 630.218-62.236 c -141.385,0.00 -256.00-114.615 -256.00-256.00 0.00-0809E9BAAA"  />
<glyph unicode="&#xe0a1;" d="M-374.218,542.236,m 560.636-413.304 -31.336,31.336 -38.241-31.336 c -22.776-18.786 -43.873,19.896 -20E16AAAAD3"  />
<glyph unicode="&#xe0a2;" d="M-374.218,542.236,m 519.924-467.727 c 23.529-17.486 48.06-32.046 69.204-50.011 15.055-12.881 27.389-019385AA5B"  />
<glyph unicode="&#xe0a3;" d="M 256.00,480.00 C 114.615,480.00 0.00,365.385 0.00,224.00 C 0.00,82.615 114.615-32.00 256.00-32.00 C0650A1EAA9 "  />
<glyph unicode="&#xe0a4;" d="M0.00,480.00,M-374.218,542.236,m 630.218-62.236 c -141.385,0.00 -256.00-114.615 -256.00-256.00 0.00-0267A87A8C"  />
<glyph unicode="&#xe0a5;" d="M -16.728,77.969,m 494.146,149.063 -164.897,0.00 21.295-97.191 133.228,0.00 z m -278.469,0.00 -164.802DC1D9A2F"  />
<glyph unicode="&#xe0a6;" d="M-374.218,542.236,m 374.707-82.514 215.01-215.00 0.00-210.569 -79.062,0.00 c -12.437,0.00 -22.45-10.02B3674AB5"  />
<glyph unicode="&#xe0a7;" d="M0.00,480.00,M0.00,1020.362,m 436.712-667.372 48.752,0.00 0.00-54.357 c -1.867,0.00 -5.323,0.185 -100D57D69AEC"  />
<glyph unicode="&#xe0a8;" d="M0.00,480.00,M-374.218,542.236,m 704.017-307.69 c 0.00-10.907 -6.616-19.749 -14.777-19.749 -8.161,0.07A64D6AF7"  />
<glyph unicode="&#xe0a9;" d="M0.00,1020.362,m 320.251-698.982 98.384,62.243 -96.376,96.376 -62.243-138.541 -36.141,108.424 -96.37044F9CAA98"  />
<glyph unicode="&#xe0aa;" d="M-374.218,542.236,m 381.393-70.234 c -3.902-3.887 -6.452-8.851 -7.175-14.481 l 0.329-129.67 c 0.505-065DFE0ADF"  />
<glyph unicode="&#xe0ab;" d="M0.00,480.00,M-384.138,531.839,m 584.572-252.971 72.387-0.778 c 1.742,38.167 -8.518,86.828 54.712,950D8AD11AC2"  />
<glyph unicode="&#xe0ac;" d="M 377.979,480.00 C 353.807,479.957 327.688,475.691 301.147,461.545 271.284,472.272 239.751,481.327 10AB9B27A32"  />
<glyph unicode="&#xe0ad;" d="M0.00,480.00,M-374.218,542.236,m 768.77-339.346 c 9.88,10.594 9.651,24.20 0.541,33.556 l 114.739,96.064FC59A00"  />
<glyph unicode="&#xe0ae;" d="M 256.00,480.00 C 114.615,480.00 0.00,365.385 0.00,224.00 C 0.00,82.615 114.615-32.00 256.00-32.00 C07DC6A7A89 "  />
<glyph unicode="&#xe0af;" d="M 42.594,379.969 L 250.875,224.00 L 42.594,68.031 L 42.594,379.969 Z M 261.125,379.969 L 469.406,224.00 L 261.125,68.031 L 261.125,379.969 Z"  />
<glyph unicode="&#xe0b0;" d="M0.00,480.00,M -17.195,66.17,m 461.475,75.365 c -5.097,8.374 -11.469,13.744 -19.114,16.111 -15.857,5047C387A9C"  />
<glyph unicode="&#xe0b1;" d="M-6053.073,10099.481,m 6196.067-9945.115 185.689,0.00 -92.844,240.582 -92.845-240.582 m -142.994-183.317 0.00,35.918 44.389,0.00 180.267,469.983 56.927,0.00 180.606-469.983 49.811,0.00 0.00-35.918 -183.995,0.00 0.00,35.918 56.249,0.00 -42.356,111.142 -212.797,0.00 -42.356-111.142 55.571,0.00 0.00-35.918 -142.316,0.00"  />
<glyph unicode="&#xe0b2;" d="M 256.00,480.00 C 397.385,480.00 512.00,365.385 512.00,224.00 C 512.00,82.615 397.385-32.00 256.00-30F66124A33"  />
<glyph unicode="&#xe0b3;" d="M0.00,480.00,M 0.00,480.00,m 116.594-50.156 c -5.951,0.00 -11.049-2.443 -15.25-7.344 L 70.375,383.62073C93CA8F"  />
<glyph unicode="&#xe0b4;" d="M 116.594,429.844 L 206.375,429.844 C 214.427,429.844 219.575,422.456 223.719,418.312 L 252.063,383.0426F51A4A"  />
<glyph unicode="&#xe0b5;" d="M -13.683,162.817 Z M 252.061,383.639 L 223.704,418.297 C 219.561,422.441 214.427,429.85 206.375,4290E8C90FAFC"  />
<glyph unicode="&#xe0b6;" d="M0.00,480.00,M-374.218,542.236,m 389.367-62.236 c -7.627-0.515 -12.89-5.447 -12.985-12.45 l 0.00-487043AFB4A91"  />
<glyph unicode="&#xe0b7;" d="M -374.218,542.236 Z M 256.00,480.00 C 397.385,480.00 512.00,365.385 512.00,224.00 C 512.00,82.615 306FFEFEAB7"  />
<glyph unicode="&#xe0b8;" d="M -26.435,154.117 Z M 467.153,447.552 C 423.582,434.148 387.33,406.005 339.165,410.019 C 307.426,41002AA05AAB3"  />
<glyph unicode="&#xe0b9;" d="M 162.833-32.00 C 129.88,36.569 147.429,75.858 172.756,112.877 C 200.491,153.415 207.639,193.545 2070F27F9EAA8"  />
<glyph unicode="&#xe0ba;" d="M0.00,480.00,M0.00,1020.362,m 512.00-609.561 c 0.00-62.689 -157.779-201.154 -189.182-263.859 l -0.2306D47CCAF1"  />
<glyph unicode="&#xe0bb;" d="M0.00,480.00,M-374.218,542.236,m 838.218-62.236 -416.00,0.00 c -8.832,0.00 -16.00-7.168 -16.00-16.000B250A9A2C"  />
<glyph unicode="&#xe0bc;" d="M 256.00,480.00 C 114.615,480.00 0.00,365.385 0.00,224.00 C 0.00,82.615 114.615-32.00 256.00-32.00 C0B7CDBCAF2 "  />
<glyph unicode="&#xe0bd;" d="M -46.469,46.856 Z M 360.202,480.00 L 122.12,480.00 C 85.029,446.39 51.052,408.281 14.363,374.108 C 01F3884AAD"  />
<glyph unicode="&#xe0be;" d="M 256.00,480.00 C 397.385,480.00 512.00,365.385 512.00,224.00 C 512.00,82.615 397.385-32.00 256.00-30C414A8A62"  />
<glyph unicode="&#xe0bf;" d="M 269.574,113.723 230.752,152.545 212.185,94.593 z m 210.989,179.481 c 3.711-4.072 3.412-9.998 0.00-087FEF3A02"  />
<glyph unicode="&#xe0c0;" d="M 256.00,480.00 C 114.615,480.00 0.00,365.385 0.00,224.00 C 0.00,82.615 114.615-32.00 256.00-32.00 C0AC7188A26 "  />
<glyph unicode="&#xe0c1;" d="M -24.604,50.599 Z M 423.542,478.242 L 258.343,478.242 C 250.431,478.143 244.852,472.911 244.284,4640DF72DCA28"  />
<glyph unicode="&#xe0c2;" d="M-374.218,542.236,m 630.218-62.236 c -89.611,0.00 -162.27-72.659 -162.27-162.27 0.00-78.22 55.354-140C54E15A03"  />
<glyph unicode="&#xe0c3;" d="M-374.218,542.236,m 591.814-162.272 0.00-311.929 L 425.896,224.00 217.596,379.964 z m -217.597,0.00 0FB5694A93"  />
<glyph unicode="&#xe0c4;" d="M-374.218,542.236,m 374.218-162.346 74.968,0.00 0.00-311.782 -74.968,0.00 z m 293.563,0.00 0.00-311.047BD8CA8B"  />
<glyph unicode="&#xe0c5;" d="M -207.879,263.282,m 719.878,119.092 0.00-316.749 -125.593,116.245 0.00,82.247 z m -472.592-33.992 20F3E056AAC"  />
<glyph unicode="&#xe0c6;" d="M-374.218,542.236,m 886.218-74.685 0.00-487.104 c -0.336-7.548 -6.555-12.367 -13.10-12.448 l -485.80056D476A3C"  />
<glyph unicode="&#xe0c7;" d="M0.00,480.00,M-374.218,542.236,m 706.951-318.204 c 0.00-40.675 -34.417-73.648 -76.872-73.648 -42.45504D9486AA1"  />
<glyph unicode="&#xe0c8;" d="M 335.938,450.594 C 331.78,450.377 327.016,447.012 323.906,441.625 L 285.75,375.562 C 275.984,376.610902FB1A4C "  />
<glyph unicode="&#xe0c9;" d="M 256.00,480.00 C 114.615,480.00 0.00,365.385 0.00,224.00 C 0.00,82.615 114.615-32.00 256.00-32.00 C063C0EEA9E "  />
<glyph unicode="&#xe0ca;" d="M 256.00,480.00 C 114.615,480.00 0.00,365.385 0.00,224.00 C 0.00,82.615 114.615-32.00 256.00-32.00 C0CFDE93AAB "  />
<glyph unicode="&#xe0cb;" d="M 256.00,480.00 C 114.615,480.00 0.00,365.385 0.00,224.00 0.00,82.615 114.615-32.00 256.00-32.00 397053629EA91"  />
<glyph unicode="&#xe0cc;" d="M -17.936,60.942 Z M 151.644,216.934 C 152.731,217.296 153.274,218.383 153.274,220.195 C 153.274,221055D874AC6"  />
<glyph unicode="&#xe0cd;" d="M0.00,480.00,M-374.218,542.236,m 866.841-413.921 c 11.664-0.836 19.239-8.813 19.377-19.377 l 0.00-9802E0081AF0"  />
<glyph unicode="&#xe0ce;" d="M0.00,480.00,M-374.218,542.236,m 822.218-574.236 -384.00,0.00 c -35.328,0.00 -64.00,28.672 -64.00,6409FC6C9A74"  />
<glyph unicode="&#xe0cf;" d="M0.00,480.00,M-374.218,542.236,m 630.218-62.236 c -141.385,0.00 -256.00-114.615 -256.00-256.00 0.00-06C5464A0E"  />
<glyph unicode="&#xe0d0;" d="M-374.218,542.236,m 374.707-504.91 512.00,0.00 0.00-69.327 -512.00,0.00 z m 350.202,442.673 -188.40406BF09CA07"  />
<glyph unicode="&#xe0d1;" d="M-374.218,542.236,m 630.218-62.236 c -141.384,0.00 -256.00-114.616 -256.00-256.00 0.00-141.384 114.60CEEF07A10"  />
<glyph unicode="&#xe0d2;" d="M0.00,480.00,M-374.218,542.236,m 853.45-222.273 l -32.183,0.00  l 0.00-31.598  0.00-32.183  l -32.768,0.00  -125.221,0.00  -32.768,0.00  l 0.00,32.183  0.00,31.598  l -32.768,0.00  l 0.00-97.719  0.00,0.00  l 32.768,0.00  l 0.00,0.00  0.00-188.416  l 95.378,0.00  l 0.00,93.623  l 32.768,0.00  l 0.00-93.623  l 62.025,0.00  l 0.00,188.416  l 0.585,0.00  32.183,0.00  L 479.232,319.963  z M 289.06,413.586 L 289.06,288.365  L 414.281,288.365  L 414.281,319.963  414.281,350.39  414.281,413.586  L 289.06,413.586  z m 222.939-63.195 l 0.00-30.427  0.00-97.719  0.00-32.768  l -32.768,0.00  l 0.00-187.831  l -32.183,0.00  -0.585,0.00  -62.025,0.00  -32.768,0.00  -95.378,0.00  l 0.00,0.00  l -32.768,0.00  L 223.524,189.476  l -95.378,0.00  l 0.00-62.025  l 30.427,0.00  l 0.00-32.183  l 32.768,0.00  l 0.00-93.623  l -32.768,0.00  l 0.00,0.00  l -93.623,0.00  -32.768,0.00  L 32.183,95.268  l 32.768,0.00  l 0.00-61.44  l 93.623,0.00  l 0.00,61.44  l -93.623,0.00  l 0.00,32.183  l 30.427,0.00  L 95.378,189.476  l -63.195,0.00  l 0.00,32.768  L 190.756,222.244  L 190.756,350.39  l 0.585,0.00  32.183,0.00  32.768,0.00  L 256.292,413.586  256.292,446.354  l 32.768,0.00  125.221,0.00  32.768,0.00  l 0.00-32.768  0.00-63.195  l 32.183,0.00  32.768,0.00  z m -353.426,0.00 l 0.00,30.427  l 32.183,0.00  l 0.00-30.427  l -32.183,0.00  z m -126.391,0.00 L 32.183,222.244  L 0.00,222.244  L 0.00,350.39  l 32.183,0.00  z m 32.768,0.00 l -32.768,0.00  l 0.00,30.427  l 32.768,0.00  l 0.00-30.427  z m 93.623,30.427 l -93.623,0.00  l 0.00,32.768  l 93.623,0.00  l 0.00-32.768  z"  />
<glyph unicode="&#xe0d3;" d="M0.00,480.00,M -251.791,237.332,m 437.853,92.651 57.996,0.00 0.00-211.813 -242.811-0.153 c 2.121,59.014A0E2AFE"  />
<glyph unicode="&#xe0d4;" d="M 256.00,224.00L 512.00,224.00L 512.00-32.00L 256.00-32.00zM 0.00,480.00L 256.00,480.00L 256.00,224.00L 0.00,224.00z"  />
<glyph unicode="&#xe0d5;" d="M 0.00,1020.362 Z M 256.00,396.64 C 397.385,396.64 512.00,282.025 512.00,140.64 C 512.00,109.241 5060FBD346A33"  />
<glyph unicode="&#xe0d6;" d="M0.00,480.00,M -33.938,50.545,m 434.469,127.269 c 12.981,5.984 22.37,14.968 26.917,27.502 4.155,12.70FD256AA60"  />
<glyph unicode="&#xe0d7;" d="M0.00,480.00,M0.00,1020.362,m 14.441-624.969 c -8.003,0.00 -14.441-6.438 -14.441-14.441 l 0.00-313.8094AD39A06"  />
<glyph unicode="&#xe0d8;" d="M 256.00,480.00 C 114.615,480.00 0.00,365.385 0.00,224.00 C 0.00,82.615 114.615-32.00 256.00-32.00 C0F45E83AC9 "  />
<glyph unicode="&#xe0d9;" d="M 253.689,477.432 C 113.722,477.432 0.257,363.967 0.257,224.00 C 0.257,84.033 113.722-29.432 253.6890F6EB05A62 " horiz-adv-x="506.864593781344"  />
<glyph unicode="&#xe0da;" d="M0.00,480.00,M-374.218,542.236,m 662.836-62.236 c -29.87,0.00 -57.918-5.018 -84.134-15.05 -26.216-100D6A05FA5F"  />
<glyph unicode="&#xe0db;" d="M -26.561,54.088 Z M 417.059,77.876 C 447.198,99.398 470.557,125.545 487.134,156.318 C 503.711,187.00DB394CA62"  />
<glyph unicode="&#xe0dc;" d="M-374.218,542.236,m 792.243-123.983 c -0.875-0.011 -1.712-0.245 -2.513-0.674 -1.281-0.686 -2.184-1.70A1F5A8AF0"  />
<glyph unicode="&#xe0dd;" d="M 256.00,480.00 C 114.615,480.00 0.00,365.385 0.00,224.00 C 0.00,82.615 114.615-32.00 256.00-32.00 C07C5E71AC3 "  />
<glyph unicode="&#xe0de;" d="M-374.218,542.236,m 602.306-62.236 c -3.578,0.00 -6.616-1.174 -9.12-3.499 -2.505-2.325 -3.935-5.267 0D3D8DDA22"  />
<glyph unicode="&#xe0df;" d="M 256.00,480.00 C 114.615,480.00 0.00,365.385 0.00,224.00 C 0.00,82.615 114.615-32.00 256.00-32.00 C08080FCAE7 "  />
<glyph unicode="&#xe0e0;" d="M -374.218,542.236 Z M 268.558,361.035 C 243.952,361.035 220.906,355.297 199.441,343.779 C 177.977,30723E54AF2"  />
<glyph unicode="&#xe0e1;" d="M 256.00,480.00 C 397.385,480.00 512.00,365.385 512.00,224.00 C 512.00,82.615 397.385-32.00 256.00-30683B46A84"  />
<glyph unicode="&#xe0e2;" d="M 256.00,480.00 C 114.615,480.00 0.00,365.385 0.00,224.00 C 0.00,82.615 114.615-32.00 256.00-32.00 C0495F90AEC "  />
<glyph unicode="&#xe0e3;" d="M 256.00,480.00 C 114.615,480.00 0.00,365.385 0.00,224.00 C 0.00,82.615 114.615-32.00 256.00-32.00 C02B9866ACD "  />
<glyph unicode="&#xe0e4;" d="M 256.018-32.00 C 397.605-31.294 508.366,79.389 512.018,224.00 C 511.017,360.475 399.00,477.206 256.0DDF75BA28"  />
<glyph unicode="&#xe0e5;" d="M0.00,480.00,M-374.218,542.236,m 710.993-289.117 c 31.383-0.357 53.85-8.202 67.401-23.537 13.551-15.02B16F2A7E"  />
<glyph unicode="&#xe0e6;" d="M 255.999,385.625 C 262.618,385.625 269.24,383.255 274.50,378.50 C 274.85,378.183 275.193,377.869 27075A7D3A98"  />
<glyph unicode="&#xe0e7;" d="M -374.218,542.236 Z M 417.636,224.00 C 417.636,217.38 415.266,210.759 410.511,205.50 C 410.194,205.062A36EAEF"  />
<glyph unicode="&#xe0e8;" d="M-374.218,542.236,m 468.582-318.236 c 0.00,6.619 2.37,13.241 7.125,18.50 0.317,0.351 0.631,0.693 0.90D21E35AC0"  />
<glyph unicode="&#xe0e9;" d="M -374.218,542.236 Z M 256.00,62.364 C 249.381,62.364 242.759,64.734 237.50,69.489 C 237.149,69.806 02D9D52A14"  />
<glyph unicode="&#xe0ea;" d="M0.00,480.00,M 185.196,374.82,m 314.065,36.343 c 1.925-1.925 2.888-4.194 2.888-6.807 0.00-2.613 -0.90F62192A31"  />
<glyph unicode="&#xe0eb;" d="M 252.031,480.00 L 216.281,419.219 L 159.688,461.00 L 148.219,391.375 L 80.406,409.75 L 94.75,340.650331169A25 "  />
<glyph unicode="&#xe0ec;" d="M -36.906,53.968,m 497.941,107.789 c 3.447,7.788 -0.784,13.166 -6.444,16.989 l -28.119,11.716 c -6.7070FD0CAAF"  />
<glyph unicode="&#xe0ed;" d="M0.00,480.00,M-374.218,542.236,m 528.225-334.236 c 1.184-55.276 46.717-103.177 101.993-101.993 55.2701F02AAA79"  />
<glyph unicode="&#xe0ee;" d="M 256.00,480.00 C 114.615,480.00 0.00,365.385 0.00,224.00 C 0.00,82.615 114.615-32.00 256.00-32.00 C03ACCBAA76 "  />
<glyph unicode="&#xe0ef;" d="M0.00,480.00,M -54.303,44.955,m 431.321,354.366 c -14.552,0.552 -20.36,5.382 -20.48,18.618 l 0.00,4308EFF4CA2E"  />
<glyph unicode="&#xe0f0;" d="M 437.563,437.719 C 371.643,372.439 274.748,332.499 181.406,326.875 L 42.781,326.875 C 20.959,326.570812AD5AA9 "  />
<glyph unicode="&#xe0f1;" d="M0.00,1020.362,m 232.598-806.077 46.822,0.00 0.00-52.024 232.549,0.00 c 0.00,0.00 0.312,115.962 -1.000B78CCAA4"  />
<glyph unicode="&#xe0f2;" d="M0.00,480.00,M-374.218,542.236,m 591.906-510.655 c 0.00-35.115 -28.466-63.581 -63.581-63.581 -35.11506B45C2A0B"  />
<glyph unicode="&#xe0f3;" d="M-374.218,542.236,m 470.218-62.236 0.00-512.00 160.00,160.00 160.00-160.00 0.00,512.00 -320.00,0.00 08BCCE2A30"  />
<glyph unicode="&#xe0f4;" d="M 416.00,480.00 L 416.00-32.00 L 256.00,128.00 L 96.00-32.00 L 96.00,480.00 Z"  />
<glyph unicode="&#xe0f5;" d="M 431.982,352.492 C 437.726,349.474 441.30,343.863 441.30,337.801 L 441.30,40.217 C 441.30,30.846 430696BF1A31"  />
<glyph unicode="&#xe0f6;" d="M-7986.68,7820.672,m 7986.68-7847.794 0.00,40.704 64.252,0.00 0.00,420.836 -64.252,0.00 0.00,40.704 297.714,0.00 c 61.224-0.001 107.199-10.317 137.924-30.949 30.724-20.633 46.086-51.694 46.087-93.183 -0.001-29.828 -10.653-53.488 -31.958-70.98 -21.081-17.493 -52.479-28.482 -94.192-32.967 50.46-4.71 89.146-18.166 116.058-40.368 26.911-22.203 40.367-51.694 40.368-88.473 -0.001-49.787 -18.839-86.455 -56.515-110.003 -37.453-23.548 -96.211-35.322 -176.273-35.322 l -279.212,0.00 m 193.766,292.668 44.068,0.00 c 38.573,0.00 67.167,6.952 85.782,20.857 18.614,14.129 27.921,35.658 27.921,64.589 0.00,29.154 -9.083,50.347 -27.248,63.58 -17.942,13.231 -46.76,19.847 -86.455,19.848 l -44.068,0.00 0.00-168.872 m 0.00-251.963 48.105,0.00 c 42.835,0.00 74.568,8.522 95.201,25.566 20.632,17.044 30.948,43.396 30.949,79.054 0.00,35.882 -10.429,62.682 -31.285,80.40 -20.857,17.717 -52.479,26.575 -94.865,26.576 l -48.105,0.00 0.00-211.595"  />
<glyph unicode="&#xe0f7;" d="M0.00,480.00,M -32.357,60.595,m 45.454,419.405 c -3.639,0.00 -6.739-1.173 -9.286-3.518 -2.547-2.345 0C7C787AB9"  />
<glyph unicode="&#xe0f8;" d="M-374.218,542.236,m 538.372-62.236 c -28.083,0.00 -50.848-22.765 -50.848-50.848 0.00-28.083 22.765-5043E729AE4"  />
<glyph unicode="&#xe0f9;" d="M 0.00,1020.362 Z M 416.00,302.545 C 416.00,33.054 512.00,107.785 512.00,32.00 L 297.199,32.00 C 29903ABD56AB6"  />
<glyph unicode="&#xe0fa;" d="M0.00,480.00,M -27.681,153.507,m 385.207,25.571 c 20.176-1.663 24.677-9.368 29.475-25.979 l -62.772,0A71375A00"  />
<glyph unicode="&#xe0fb;" d="M 0.00,445.469 L 42.781,445.469 L 42.781,2.531 L 0.00,2.531 L 0.00,445.469 Z M 63.063,445.469 L 73.30BA7599A91"  />
<glyph unicode="&#xe0fc;" d="M0.00,480.00,M0.00,1020.362,m 74.981-615.343 c -99.974-99.974 -99.974-262.065 0.00-362.039 99.974-990A2C798AAC"  />
<glyph unicode="&#xe0fd;" d="M-374.218,542.236,m 843.421-162.424 -208.063-155.812 208.063-155.813 0.00,311.625 z m -218.313,0.00 -208.094-155.812 208.094-155.813 0.00,311.625 z"  />
<glyph unicode="&#xe0fe;" d="M 1074.916,2218.108,m -619.519-1877.686 -158.231-69.467 16.724,172.382 c 0.00,2.573 0.00,5.146 0.00,7.719 0.00,15.437 -7.719,18.01 -30.874,18.01 l -55.317,0.00 c -23.156,0.00 -32.161-2.573 -32.161-19.296 0.00-1.286 0.00-3.859 0.00-6.432 l 18.01-174.955 -156.945,72.04 c -6.432,2.573 -11.578,3.859 -15.437,3.859 -9.005,0.00 -11.578-7.719 -18.01-25.729 l -18.01-51.457 c -3.859-12.864 -5.146-21.869 -5.146-24.442 0.00-6.432 7.719-11.578 20.583-14.151 l 169.809-37.307 -117.065-128.643 c -6.432-6.432 -9.005-11.578 -9.005-18.01 0.00-3.859 6.432-11.578 19.296-20.583 l 43.739-32.161 c 11.578-9.005 20.583-12.864 23.156-12.864 5.146,0.00 11.578,3.859 18.01,14.151 l 87.477,149.226 87.477-149.226 c 5.146-9.005 11.578-14.151 16.724-14.151 2.573,0.00 11.578,2.573 23.156,11.578 l 43.739,32.161 c 12.864,9.005 20.583,15.437 20.583,20.583 0.00,6.432 -2.573,11.578 -9.005,18.01 l -115.779,131.216 168.523,36.02 c 12.864,2.573 20.583,7.719 20.583,14.151 0.00,2.573 -1.286,11.578 -5.146,23.156 l -16.724,52.744 c -5.146,18.01 -10.291,25.729 -19.296,25.729 -3.859,0.00 -9.005-1.287 -15.437-3.859"  />
<glyph unicode="&#xe0ff;" d="M -23.509,49.391 Z M 267.735,322.329 C 268.951,277.763 270.161,233.186 271.619,188.634 C 271.989,1760BCCE44A6D"  />
<glyph unicode="&#xe100;" d="M -12.626,58.795,m 455.589,170.846 c 4.298-5.373 4.656-11.103 1.075-17.192 -2.865-6.089 -7.70-9.133 0EB4E3CAAA"  />
<glyph unicode="&#xe101;" d="M -12.894,58.714 Z M 261.641,36.687 L 261.641,36.687 L 505.016,210.756 C 509.672,214.338 512.00,218.00A7C19AEA"  />
<glyph unicode="&#xe102;" d="M -24.393,147.801 Z M 250.084,410.941 L 250.084,410.941 L 6.991,237.226 C 2.33,233.641 0.00,228.98 0072CEC2AD5"  />
<glyph unicode="&#xe103;" d="M -14.775,58.795 Z M 69.036,218.358 L 69.036,218.358 L 243.105-25.016 C 245.971-29.672 250.448-32.0000C65EFADE"  />
<glyph unicode="&#xe104;" d="M -374.218,542.236 Z M 240.972,431.635 L 492.823,431.635 C 503.452,431.635 512.00,423.071 512.00,4120D85C3FAC2"  />
<glyph unicode="&#xe105;" d="M -374.218,542.236 Z M 19.177,431.635 L 271.027,431.635 C 281.656,431.635 290.205,423.071 290.205,4105922DCA3F"  />
<glyph unicode="&#xe106;" d="M -374.218,542.236 Z M 19.177,431.619 L 492.806,431.619 C 503.436,431.619 512.00,423.054 512.00,412.0E05770ADE"  />
<glyph unicode="&#xe107;" d="M -374.218,542.236 Z M 130.075,431.635 L 381.909,431.635 C 392.538,431.635 401.102,423.071 401.102,403B9F08A64"  />
<glyph unicode="&#xe108;" d="M -26.811,149.409,m 284.991,125.79 c -57.832,0.895 -102.009,47.384 -102.40,102.40 0.955,57.316 47.80023D204A85"  />
<glyph unicode="&#xe109;" d="M-374.218,542.236,m 630.218-62.236 c -141.385,0.00 -256.00-114.615 -256.00-256.00 0.00-141.385 114.60192056A5E"  />
<glyph unicode="&#xe10a;" d="M 256.00,480.00 C 114.615,480.00 0.00,365.385 0.00,224.00 C 0.00,82.615 114.615-32.00 256.00-32.00 C01F8B43A2A "  />
<glyph unicode="&#xe10b;" d="M0.00,480.00,M-374.218,542.236,m 395.281-62.236 c -11.669,0.00 -21.063-9.394 -21.063-21.063 l 0.00-400A4B01A68"  />
<glyph class="hidden" unicode="&#xf000;" d="M0,480L 512 -32L0 -32 z" horiz-adv-x="0" />
</font>
</defs>
</svg>
